SmileSmile DOBRO DOSLI NA FORUM KOMPIJUTERI SmileSmile


Ukoliko nijeste registrovani molimo vas da se registrujete kako bi imali pristup svim djelovima foruma.



The Twilight Saga: Eclipse (2010)

 :: Filmovi

Ići dole

The Twilight Saga: Eclipse (2010)

Počalji od Gost taj Uto Jul 27, 2010 4:20 pm




Video
Format : MPEG-4 Visual
Format profile : Streaming Video@L1
Format settings, BVOP : Yes
Format settings, QPel : No
Format settings, GMC : No warppoints
Format settings, Matrix : Default
Muxing mode : Packed bitstream
Codec ID : XVID
Codec ID/Hint : XviD
Duration : 1h 55mn
Bit rate : 1 599 Kbps
Width : 720 pixels
Height : 304 pixels
Display aspect ratio : 2.35
Frame rate : 25.000 fps
Resolution : 24 bits
Colorimetry : 4:2:0
Scan type : Progressive
Bits/(Pixel*Frame) : 0.292
Stream size : 1.29 GiB (92%)
Writing library : XviD 50

Audio
Format : MPEG Audio
Format version : Version 1
Format profile : Layer 3
Codec ID : 55
Codec ID/Hint : MP3
Duration : 1h 55mn
Bit rate mode : Constant
Bit rate : 128 Kbps
Channel(s) : 2 channels
Sampling rate : 44.1 KHz
Resolution : 16 bits
Stream size : 105 MiB (7%)
Alignment : Split accross interleaves
Interleave, duration : 40 ms (1.00 video frame)
Interleave, preload duration : 500 ms







Kod:
http://rapidshare.com/files/409215756/SmartWarez.Org__DFBACKUPTW.part1.rar
http://rapidshare.com/files/409215795/SmartWarez.Org__DFBACKUPTW.part2.rar
http://rapidshare.com/files/409216023/SmartWarez.Org__DFBACKUPTW.part3.rar
http://rapidshare.com/files/409216085/SmartWarez.Org__DFBACKUPTW.part4.rar
http://rapidshare.com/files/409216233/SmartWarez.Org__DFBACKUPTW.part5.rar
http://rapidshare.com/files/409216302/SmartWarez.Org__DFBACKUPTW.part6.rar
http://rapidshare.com/files/409216479/SmartWarez.Org__DFBACKUPTW.part7.rar
http://rapidshare.com/files/409216401/SmartWarez.Org__DFBACKUPTW.part8.rar
avatar
Gost
Gost


Nazad na vrh Ići dole

Nazad na vrh

- Similar topics

 :: Filmovi

 
Dozvole ovog foruma:
Ne možete odgovarati na teme u ovom forumu